Loading...


Loading




Author : Poster | Date : 3-12-2015, 12:30 | Comments : 0 |
|

Andrea Bocelli - My Christmas (2009)
EAC | Flac(Image) + Cue + Log & MP3 CBR 320Kbps
Sugar, 8033120981517 | ~ 369 or 146 Mb | Scans(png) -> 185 Mb
Classical / Vocal / Pop / Xmas

Andrea Bocelli's 2009 My Christmas album finds the Italian tenor performing various classic holiday-themed songs that touch on classical, opera, and pop...


Andrea Bocelli's 2009 My Christmas album finds the Italian tenor performing various classic holiday-themed songs that touch on classical, opera, and pop. Included are such well-known holiday songs as "Santa Claus Is Coming to Town," "O Tannenbaum," and "Silent Night." The versatile Bocelli also delves into such iconic Christmas hits as "Blue Christmas" and "The Christmas Song" (featuring a duet with Natalie Cole). Of course, the opera and classic songs are Bocelli's bread and butter, and here listeners get such lavishly produced cuts as "Adeste Fidelis," "Cantique del Noel," and "Caro Gesu Bambino." My Christmas is not only a warm and inviting holiday album, but also a superb classical crossover entry worthy of Bocelli's discography.
by Matt Collar, AMG

Tracklist:
01. White Christmas / Bianco Natale
02. Angels We Have Heard On High
03. Santa Claus Is Coming to Town
04. The Christmas Song - duet with Natalie Cole
05. The Lord's Prayer - featuring The Mormon Tabernacle Choir
06. What Child Is This - duet with Mary J. Blige
07. Adeste Fideles
08. O Tannenbaum
09. Jingle Bells - featuring The Muppets
10. Silent Night
11. Blue Christmas - duet with Malika Ayane
12. Cantique de Noel
13. Caro Gesù Bambino
14. Tu scendi dalle stelle
15. Dio ci benedirà
16. I Believe - duet with Katherine Jenkins
EAC Log
Exact Audio Copy V1.0 beta 3 from 29. August 2011
EAC extraction logfile from 24. October 2012, 9:57
Andrea Bocelli / My Christmas {Italian Edition} (8033120981517)
Used drive : TSSTcorpCDDVDW TS-L633C Adapter: 2 ID: 0
Read mode : Secure
Utilize accurate stream : Yes
Defeat audio cache : Yes
Make use of C2 pointers : No
Read offset correction : 6
Overread into Lead-In and Lead-Out : No
Fill up missing offset samples with silence : Yes
Delete leading and trailing silent blocks : No
Null samples used in CRC calculations : Yes
Used interface : Native Win32 interface for Win NT & 2000
Used output format : Internal WAV Routines
Sample format : 44.100 Hz; 16 Bit; Stereo
TOC of the extracted CD
Track | Start | Length | Start sector | End sector
---------------------------------------------------------
1 | 0:00.00 | 3:58.44 | 0 | 17893
2 | 3:58.44 | 3:55.24 | 17894 | 35542
3 | 7:53.68 | 3:33.58 | 35543 | 51575
4 | 11:27.51 | 4:33.39 | 51576 | 72089
5 | 16:01.15 | 4:24.50 | 72090 | 91939
6 | 20:25.65 | 4:31.30 | 91940 | 112294
7 | 24:57.20 | 3:35.19 | 112295 | 128438
8 | 28:32.39 | 4:18.06 | 128439 | 147794
9 | 32:50.45 | 3:36.03 | 147795 | 163997
10 | 36:26.48 | 4:37.01 | 163998 | 184773
11 | 41:03.49 | 4:18.56 | 184774 | 204179
12 | 45:22.30 | 4:34.62 | 204180 | 224791
13 | 49:57.17 | 1:43.68 | 224792 | 232584
14 | 51:41.10 | 2:50.58 | 232585 | 245392
15 | 54:31.68 | 3:16.56 | 245393 | 260148
16 | 57:48.49 | 4:24.39 | 260149 | 279987
Range status and errors
Selected range
Filename C:UsersuserDesktopAndrea Bocelli - My Christmas {Italian Edition} (8033120981517).wav
Peak level 99.7 %
Extraction speed 3.9 X
Range quality 100.0 %
Test CRC 4098A34D
Copy CRC 4098A34D
Copy OK
No errors occurred
AccurateRip summary
Track 1 accurately ripped (confidence 7) [05CF0130] (AR v1)
Track 2 accurately ripped (confidence 7) [2F4BF770] (AR v1)
Track 3 accurately ripped (confidence 7) [7A5C6620] (AR v1)
Track 4 accurately ripped (confidence 7) [18A36422] (AR v1)
Track 5 accurately ripped (confidence 7) [3C1CA9B9] (AR v1)
Track 6 accurately ripped (confidence 7) [CAABB090] (AR v1)
Track 7 accurately ripped (confidence 7) [807FA1A5] (AR v1)
Track 8 accurately ripped (confidence 7) [19A45977] (AR v1)
Track 9 accurately ripped (confidence 7) [C30AA57E] (AR v1)
Track 10 accurately ripped (confidence 7) [DAADDE65] (AR v1)
Track 11 accurately ripped (confidence 7) [DB0E1C68] (AR v1)
Track 12 accurately ripped (confidence 7) [CD53F14E] (AR v1)
Track 13 accurately ripped (confidence 7) [8FCC11AF] (AR v1)
Track 14 accurately ripped (confidence 7) [50B1D61A] (AR v1)
Track 15 accurately ripped (confidence 7) [C7408153] (AR v1)
Track 16 accurately ripped (confidence 7) [956F12B1] (AR v1)
All tracks accurately ripped
End of status report

DR Log
foobar2000 1.2.9 / Dynamic Range Meter 1.1.1
log date: 2015-12-02 13:25:42
--------------------------------------------------------------------------------
Analyzed: Andrea Bocelli / My Christmas {Italian Edition} (8033120981517)
--------------------------------------------------------------------------------
DR Peak RMS Duration Track
--------------------------------------------------------------------------------
DR8 -0.02 dB -11.55 dB 3:59 01-White Christmas / Bianco Natale
DR6 -0.02 dB -9.69 dB 3:55 02-Angels We Have Heard On High
DR8 -0.02 dB -10.61 dB 3:34 03-Santa Claus Is Coming to Town
DR8 -0.02 dB -11.01 dB 4:34 04-The Christmas Song (Duet With Natalie Cole)
DR7 -0.02 dB -11.79 dB 4:25 05-The Lord's Prayer (Featuring The Mormon Tabernacle Choir)
DR8 -0.02 dB -11.05 dB 4:31 06-What Child Is This (Duet With Mary J. Blige)
DR7 -0.02 dB -10.38 dB 3:35 07-Adeste fideles
DR8 -0.02 dB -12.23 dB 4:18 08-O Tannenbaum
DR8 -0.02 dB -10.58 dB 3:36 09-Jingle Bells (Featuring The Muppets)
DR7 -0.02 dB -11.41 dB 4:37 10-Silent Night
DR9 -0.02 dB -11.68 dB 4:19 11-Blue Christmas (Duet With Malika Ayane)
DR8 -0.02 dB -12.39 dB 4:35 12-Cantique de Noel
DR11 -0.02 dB -14.32 dB 1:44 13-Caro Gesu Bambino
DR9 -0.02 dB -11.52 dB 2:51 14-Tu scendi dalle stelle
DR6 -0.02 dB -8.88 dB 3:17 15-Dio ci benedira
DR7 -0.02 dB -11.35 dB 4:25 16-I Believe (Duet With Katherine Jenkins)
--------------------------------------------------------------------------------
Number of tracks: 16
Official DR value: DR8
Samplerate: 44100 Hz
Channels: 2
Bits per sample: 16
Bitrate: 788 kbps
Codec: FLAC

CUETools Log
[CUETools log; Date: 01.12.2015 8:10:03; Version: 2.1.4]
[CTDB TOCID: 628RDcVfig_YjPVpR0uDw7Ym1UQ-] found.
Track | CTDB Status
1 | ( 8/15) Accurately ripped
2 | ( 8/15) Accurately ripped
3 | ( 8/15) Accurately ripped
4 | ( 8/15) Accurately ripped
5 | ( 8/15) Accurately ripped
6 | ( 8/15) Accurately ripped
7 | ( 8/15) Accurately ripped
8 | ( 8/15) Accurately ripped
9 | ( 8/15) Accurately ripped
10 | ( 8/15) Accurately ripped
11 | ( 8/15) Accurately ripped
12 | ( 8/15) Accurately ripped
13 | ( 8/15) Accurately ripped
14 | ( 7/15) Accurately ripped
15 | ( 7/15) Accurately ripped
16 | (15/15) Accurately ripped
[AccurateRip ID: 00256fb7-01bf3757-f80e9510] found.
Track [ CRC | V2 ] Status
01 [05cf0130|5088d116] (07+06/18) Accurately ripped
02 [2f4bf770|47f9d820] (07+06/18) Accurately ripped
03 [7a5c6620|f933860e] (07+06/18) Accurately ripped
04 [18a36422|69ad83b4] (07+06/18) Accurately ripped
05 [3c1ca9b9|36525636] (07+06/18) Accurately ripped
06 [caabb090|e20085a7] (07+06/18) Accurately ripped
07 [807fa1a5|0df6f1af] (07+06/18) Accurately ripped
08 [19a45977|edc46ecd] (07+06/18) Accurately ripped
09 [c30aa57e|a7a1d9e3] (07+06/18) Accurately ripped
10 [daadde65|8ab885a2] (07+06/18) Accurately ripped
11 [db0e1c68|2d5c79be] (07+07/19) Accurately ripped
12 [cd53f14e|58ae055e] (07+06/18) Accurately ripped
13 [8fcc11af|8ebd1a79] (07+06/18) Accurately ripped
14 [50b1d61a|b57723f6] (07+06/18) Accurately ripped
15 [c7408153|9f04e099] (07+06/18) Accurately ripped
16 [956f12b1|9f5253cf] (07+06/18) Accurately ripped
Offsetted by -264:
01 [e81f8bd8] (00/18) No match (V2 was not tested)
02 [59fd1818] (00/18) No match (V2 was not tested)
03 [cf9577f8] (00/18) No match (V2 was not tested)
04 [f0046ada] (00/18) No match (V2 was not tested)
05 [bd9c5b1d] (00/18) No match (V2 was not tested)
06 [7656179c] (00/18) No match (V2 was not tested)
07 [664a01a5] (00/18) No match (V2 was not tested)
08 [e4505e1f] (00/18) No match (V2 was not tested)
09 [def3f6e6] (00/18) No match (V2 was not tested)
10 [4ffe4ffd] (00/18) No match (V2 was not tested)
11 [1f800380] (00/19) No match (V2 was not tested)
12 [f01c1ef6] (00/18) No match (V2 was not tested)
13 [60aa415f] (00/18) No match (V2 was not tested)
14 [4004980a] (00/18) No match (V2 was not tested)
15 [e1a49d5b] (00/18) No match (V2 was not tested)
16 [287584a9] (05/18) Accurately ripped
Track Peak [ CRC32 ] [W/O NULL] [ LOG ]
-- 99,7 [4098A34D] [79E82027] CRC32
01 99,7 [54DC2D22] [F85CB0CA]
02 99,7 [3FFC87FB] [A88D2D5C]
03 99,7 [C05339AF] [3019D939]
04 99,7 [A34B672D] [4A2EFDD0]
05 99,7 [A3CC289F] [A919CAAD]
06 99,7 [0587C808] [42B469B1]
07 99,7 [BA513A0B] [8B2E97F7]
08 99,7 [3E564033] [E632E4C8]
09 99,7 [FEBCBB1B] [488A93F3]
10 99,7 [497E48BD] [71D97C1E]
11 99,7 [47211065] [8BA938CC]
12 99,7 [AD74C854] [4AF93E50]
13 99,7 [3A4336CA] [3CDC1142]
14 99,7 [FC56E965] [28C978F0]
15 99,7 [BE1EE105] [EEB7FD2D]
16 99,7 [A49B66B2] [7E01C4C3]

All thanks go to italia57

Download Now :

 
[related-news] Related News:

{related-news} [/related-news]

ADVERTISING » Full And Free Download
Direct Download Free Andrea Bocelli - My Christmas .zip
« ADVERTISING

Andrea Bocelli - My Christmas Copyright

dlbin periodically updates infomation and download links of Andrea Bocelli - My Christmas .You should confirm all information before relying on it. eBook piracy is theft, Andrea Bocelli - My Christmas download torrent,direct link,prefiles.com,Andrea Bocelli - My Christmas dropbox.com,Andrea Bocelli - My Christmas mediafire.com,Andrea Bocelli - My Christmas rapidgator.net,Andrea Bocelli - My Christmas filefactory.com,Andrea Bocelli - My Christmas uploaded.net,oboom.com at here Please contact hostfile


Write a Comment For"Andrea Bocelli - My Christmas "




Recent searches:
Watercolor Artist Ja Digital Camera Magaz medical abbrevations movicon helpsmith imaging of pancreati breast cancer screen the ghost on my couc diagnostic ultrasoun intenzione plaboy march 2015 The Girlfriend Activ windows password gen wire hornby magazine apri xsplit italian thriller CU BAse Sul recupero delle a awrc Stereo Magazin - Apr LP Magazin für anal internet download ma E-Commerce Encyclopedia of E-Co Traction A Startup G MYWEBCAM WEBCAMLIVE Jodi Picoult Shaolin Wushu The Rough Guide to t he Story of Architec guitarist april 2015 kung-fu shaolin manhattan guide cross stich card sho roberto moliterni scarbee domina magic Spectrum Mathematics Statistical Techniqu Giniewski Hamdy Makhlouf uninstall tool Canadian Metalworkin just tacos tacos baxaar Understanding and Se madesvalia orchids diagnostic imaging chi marzo 2015 chi 12 Geoffrey Archer Victoria Holt superbluetooth poweroff hijack "glenn beck" glenn beck Macaron de Pierre He Macaron Pierre Hermé Opeartion Chowhound world order Health Promotion in ending eats of suez Ending East of Suez Operation Chowhound Hetman FAT Recovery Asphalt 8 asphault 8 textbook of Pulmonar weather pro mac healthy food guide Otama - New Magazine fornario salle de bain salle d eau mathematique calcul scientifique Introduction au calc actualarchaeology rcTREND 1/2015 the bill james handb cambridge objective new vanguard 137 weather pro for mac weather pro der spiegel 10/2015 middle ear astronimey tamyia A funky thesaurus fo madera hockey news playboy greece dianetics modern sci lr hubbard Automation Studio P6

Remember Me?
BOOKSMARK US

rss feed

Get newest via RSS reader

feed burner

Mail Daily Letter

Enter your email address:

PUBLICATION ARCHIVE
«    March 2017    »
MonTueWedThuFriSatSun
 12345
6789101112
13141516171819
20212223242526
2728293031 

Main/Menu

WE RECOMMEND TO VISIT:

^ Top